Audio Café

Tous les sujets audiophiles et hifi sont abordés, avec ou sans café, simplement
 
AccueilCalendrierFAQRechercherGroupesMembresS'enregistrerConnexion

Partagez | 
 

 Lauridsen: Lux Aeterna

Voir le sujet précédent Voir le sujet suivant Aller en bas 
AuteurMessage
pompon

avatar

Messages : 1499
Date d'inscription : 12/03/2011

MessageSujet: Lauridsen: Lux Aeterna   Mar 25 Avr - 20:11

Quelque chose de solidement merveilleux. DR13 de dynamique de moyenne
Je me suis payé cela ce soir sur le site de PrestoClassical



http://www.prestoclassical.co.uk/r/Rubedo%2BCanis%2BMusica/RCM19705
Revenir en haut Aller en bas
RicharD

avatar

Messages : 3825
Date d'inscription : 20/04/2010
Age : 63
Localisation : Val d'Or

MessageSujet: Re: Lauridsen: Lux Aeterna   Mer 26 Avr - 8:03

DR13 de dynamique ???

Concrètement, cela représente quel écart dynamique en DB ?

Bien hâte d'écouter cela.
Revenir en haut Aller en bas
pompon

avatar

Messages : 1499
Date d'inscription : 12/03/2011

MessageSujet: Re: Lauridsen: Lux Aeterna   Mer 26 Avr - 20:07

Le calcul du DR se fait sur la MICRODYNAMIQUE et non pas sur la MACRODYNAMIQUE.

DR13-14 ce sont de bons enregistrements de Chrorales de Turtle Creek Chorale

Quelques exemples qu'on a en commun:
Analyzed: Keith Jarrett / Changeless
--------------------------------------------------------------------------------

DR         Peak         RMS     Duration Track
--------------------------------------------------------------------------------
DR15      -1.44 dB   -21.85 dB      9:02 01-Dancing
DR20      -0.41 dB   -25.01 dB     15:32 02-Endless
DR17      -3.26 dB   -25.69 dB     11:32 03-Lifeline
DR19      -2.11 dB   -27.24 dB     13:00 04-Ecstasy


Analyzed: Keith Jarrett / Inside Out
--------------------------------------------------------------------------------

DR Peak RMS Duration Track
--------------------------------------------------------------------------------
DR13 -0.16 dB -16.82 dB 23:13 01-From The Body
DR13 -0.08 dB -16.96 dB 21:13 02-Inside Out
DR14 -0.03 dB -18.74 dB 18:51 03-341 Free Fade
DR12 -0.23 dB -15.96 dB 7:23 04-Riot
DR14 -5.40 dB -24.07 dB 7:25 05-When I Fall In Love


Analyzed: Marie-Jo Thério / Les matins habitables
--------------------------------------------------------------------------------

DR Peak RMS Duration Track
--------------------------------------------------------------------------------
DR15 0.00 dB -19.31 dB 5:52 01-Café Robinson
DR13 -1.91 dB -19.13 dB 4:59 02-Le Chant d'Hélium
DR14 0.00 dB -17.70 dB 3:05 03-Brille brille petite tortue
DR12 -1.09 dB -18.31 dB 5:45 04-Arbre à fruits arbre à fruits
DR12 -3.14 dB -19.84 dB 2:23 05-Matavenero
DR13 0.00 dB -16.33 dB 3:48 06-Song for Lydia Lee
DR14 -1.41 dB -20.56 dB 4:45 07-Bodily Delta
DR14 0.00 dB -19.87 dB 4:21 08-Moncton
DR14 0.00 dB -19.24 dB 4:40 09-Les matins habitables
DR10 0.00 dB -13.73 dB 5:34 10-J'vas m'en aller
DR12 0.00 dB -16.99 dB 8:06 11-Evangeline
--------------------------------------------------------------------------------

MikeOldfield - Amarok DR10 (tu me disais comme c'était dynamique ... ce n'est rien comparativement à celle de Jarrett qui fait DR20.)


Analyzed: Nik Bärtsch's Mobile / Aer
--------------------------------------------------------------------------------

DR Peak RMS Duration Track
--------------------------------------------------------------------------------
DR6 -0.01 dB -8.69 dB 8:02 01-Modul 29
DR9 -0.01 dB -11.92 dB 11:02 02-Modul 16
DR8 -0.01 dB -10.96 dB 4:49 03-Modul 18
DR8 -0.01 dB -10.16 dB 3:08 04-Modul 20
DR11 -0.01 dB -12.65 dB 2:06 05-Modul 26
DR6 0.00 dB -8.40 dB 10:42 06-Modul 8_11
--------------------------------------------------------------------------------

Analyzed: Paolo Fresu / Mistico Mediterraneo
--------------------------------------------------------------------------------

DR Peak RMS Duration Track
--------------------------------------------------------------------------------
DR15 -0.30 dB -20.48 dB 5:00 01-Rex Tremendae
DR12 -0.30 dB -18.98 dB 5:24 02-Liberata
DR13 -0.32 dB -17.59 dB 5:08 03-Da Te A Me
DR13 -0.30 dB -17.65 dB 6:40 04-Le Lac
DR14 -0.31 dB -19.52 dB 5:15 05-Dies Irae
DR13 -1.13 dB -18.57 dB 4:25 06-Gloria
DR11 -2.77 dB -19.32 dB 3:45 07-Corale
DR12 -3.52 dB -19.29 dB 1:47 08-La folie du Cardinal
DR14 -0.49 dB -19.72 dB 4:39 09-U Sipulcro
DR12 -2.00 dB -17.69 dB 2:54 10-Scherzi Veranili
DR13 -0.35 dB -19.40 dB 4:21 11-Figliulo d'ella
DR12 -1.99 dB -18.34 dB 2:29 12-Gradualis
DR14 -0.31 dB -19.74 dB 4:42 13-Sanctus
--------------------------------------------------------------------------------


Analyzed: Solyma / Solyma
--------------------------------------------------------------------------------

DR Peak RMS Duration Track
--------------------------------------------------------------------------------
DR7 0.00 dB -9.26 dB 4:03 01-Solyma (Jerusalem)
DR8 0.00 dB -9.95 dB 4:24 02-Ante Solem
DR7 0.00 dB -10.45 dB 4:17 03-Ad Me Veni
DR8 0.00 dB -9.86 dB 5:41 04-Tres Armenii
DR12 -2.45 dB -16.06 dB 1:29 05-Karamane
DR7 0.00 dB -9.99 dB 4:52 06-Dormire
DR9 0.00 dB -10.46 dB 4:44 07-Laïla Leil
DR8 0.00 dB -10.63 dB 6:03 08-Propheta
DR9 0.00 dB -11.34 dB 4:19 09-Terra Fidelis
DR8 0.00 dB -10.95 dB 5:25 10-Tres Armenii Remix
DR8 0.00 dB -10.72 dB 6:06 11-Memoria
DR6 0.00 dB -9.01 dB 5:10 12-Solyma (Jerusalem) Remix
--------------------------------------------------------------------------------


Analyzed: Tsuyoshi Yamamoto Trio / Misty
--------------------------------------------------------------------------------

DR Peak RMS Duration Track
--------------------------------------------------------------------------------
DR14 -1.89 dB -21.53 dB 7:19 01-Misty
DR11 -0.61 dB -14.53 dB 8:02 02-Blues
DR12 -1.64 dB -17.55 dB 6:13 03-Yesterdays
DR11 -0.14 dB -13.61 dB 6:08 04-Honey Suckle Rose
DR11 0.00 dB -15.18 dB 6:06 05-Smoke Gets In Your Eyes
DR12 0.00 dB -15.20 dB 6:29 06-I Didn't Know What Time It Was
DR13 -3.10 dB -22.04 dB 4:44 07-Angel Eyes
--------------------------------------------------------------------------------

Analyzed: Alison Krauss + Union Station / New Favorite
--------------------------------------------------------------------------------

DR Peak RMS Duration Track
--------------------------------------------------------------------------------
DR11 0.00 dB -14.09 dB 3:21 01-Let Me Touch You For Awhile
DR10 0.00 dB -13.12 dB 4:41 02-The Boy Who Wouldn't Hoe Corn
DR10 0.00 dB -11.85 dB 3:10 03-The Lucky One
DR10 0.00 dB -12.32 dB 3:11 04-Choctaw Hayride
DR10 0.00 dB -12.61 dB 3:47 05-Crazy Faith
DR10 0.00 dB -11.32 dB 3:21 06-Momma Cried
DR11 0.00 dB -13.20 dB 3:28 07-I'm Gone
DR9 0.00 dB -11.16 dB 4:03 08-Daylight
DR10 0.00 dB -11.70 dB 3:00 09-Bright Sunny South
DR11 0.00 dB -13.65 dB 2:54 10-Stars
DR9 0.00 dB -11.77 dB 2:45 11-It All Comes Down To You
DR10 0.00 dB -11.80 dB 2:51 12-Take Me For Longing
DR12 0.00 dB -15.26 dB 4:35 13-New Favorite
--------------------------------------------------------------------------------

Analyzed: Andreas Vollenweider / White Winds
--------------------------------------------------------------------------------

DR Peak RMS Duration Track
--------------------------------------------------------------------------------
DR11 -3.54 dB -22.12 dB 1:51 01-The White Winds - The White Boat (First View)
DR15 -0.82 dB -18.32 dB 5:04 02-Hall Of The Stairs - Hall Of The Mosaics (Meeting You)
DR14 -0.33 dB -18.41 dB 7:36 03-The Glass Hall (Choose The Crystal) - The Play Of The Five Balls - The Five P...
DR15 -1.04 dB -19.19 dB 4:25 04-The Woman And The Stone
DR10 -1.99 dB -16.05 dB 3:03 05-The Stone (Close-Up)
DR14 -1.75 dB -18.51 dB 2:45 06-Phases Of The Three Moons
DR14 -0.64 dB -18.01 dB 3:45 07-Flight Feet & Root Hands
DR14 -2.98 dB -20.96 dB 3:20 08-Brothership
DR12 -6.56 dB -25.47 dB 1:29 09-Sisterseed
DR14 -2.00 dB -20.30 dB 3:20 10-Trilogy (At The White Magic Gardens) - The White Winds
--------------------------------------------------------------------------------


Analyzed: Madonna / True Blue
--------------------------------------------------------------------------------

DR Peak RMS Duration Track
--------------------------------------------------------------------------------
DR13 -0.04 dB -14.00 dB 4:29 01-Papa Don't Preach
DR12 -0.07 dB -13.94 dB 4:13 02-Open Your Heart
DR12 -0.04 dB -13.68 dB 4:40 03-White Heat
DR13 -0.10 dB -14.82 dB 5:52 04-Live To Tell
DR12 -0.14 dB -13.16 dB 4:21 05-Where's The Party
DR13 -0.02 dB -14.24 dB 4:18 06-True Blue
DR13 -0.12 dB -15.45 dB 4:03 07-La Isla Bonita
DR13 -0.09 dB -14.51 dB 3:56 08-Jimmy Jimmy
DR13 -0.09 dB -14.50 dB 4:31 09-Love Makes The World Go Round
--------------------------------------------------------------------------------

Ici on voit en 2007, le loudness war avait fait son oeuvre ... On passe de DR13 à DR7

Analyzed: Madonna / The Confession Tour
--------------------------------------------------------------------------------

DR Peak RMS Duration Track
--------------------------------------------------------------------------------
DR8 -0.15 dB -10.05 dB 8:01 01-Future Lovers / I Feel Love
DR7 -0.11 dB -8.88 dB 4:13 02-Like A Virgin
DR7 -0.12 dB -8.30 dB 4:53 03-Jump
DR8 -0.10 dB -10.79 dB 3:53 04-Confessions
DR7 -0.10 dB -9.64 dB 6:45 05-Isaac
DR6 -0.10 dB -8.13 dB 5:03 06-Sorry
DR7 -0.10 dB -9.26 dB 3:45 07-Sorry : Remix
DR6 -0.12 dB -7.65 dB 5:37 08-I Love New York
DR7 -0.10 dB -8.24 dB 4:45 09-Let It Will Be
DR7 -0.10 dB -8.41 dB 7:41 10-Music Inferno
DR8 -0.10 dB -10.04 dB 4:56 11-Erotica
DR7 -0.10 dB -8.97 dB 3:50 12-Lucky Star
DR7 -0.10 dB -8.36 dB 9:50 13-Hung Up
--------------------------------------------------------------------------------

Analyzed: Mannheim Steamroller And The London Symphony / Fresh Aire V
--------------------------------------------------------------------------------

DR Peak RMS Duration Track
--------------------------------------------------------------------------------
DR12 -12.73 dB -31.77 dB 1:30 01-Lumen
DR14 -7.42 dB -25.18 dB 10:39 02-Escape From The Atmosphere
DR13 -8.19 dB -24.14 dB 5:14 03-Dancin' In The Stars
DR14 -10.11 dB -28.38 dB 3:51 04-Z-Row Gravity
DR10 -14.09 dB -29.50 dB 3:51 05-Creatures Of Levania
DR14 -9.36 dB -29.11 dB 4:02 06-Earthrise Returns
DR14 -6.77 dB -24.43 dB 4:56 07-Return
DR9 -16.06 dB -39.11 dB 0:42 08-The Storm
--------------------------------------------------------------------------------

Number of tracks: 8
Official DR value: DR13


Analyzed: Michael Bublé / Call Me Irresponsible
--------------------------------------------------------------------------------

DR Peak RMS Duration Track
--------------------------------------------------------------------------------
DR7 -0.10 dB -10.29 dB 3:05 01-The Best Is Yet To Come
DR7 0.00 dB -9.41 dB 3:06 02-It Had Better Be Tonight
DR7 0.00 dB -11.12 dB 4:34 03-Me And Mrs. Jones
DR8 0.00 dB -11.41 dB 4:59 04-I'm Your Man
DR7 -0.10 dB -9.72 dB 3:27 05-Comin'Home Baby
DR7 0.00 dB -10.62 dB 3:41 06-Lost
DR7 0.00 dB -10.29 dB 3:17 07-Call Me Irresponsible
DR10 -0.10 dB -12.45 dB 4:13 08-Wonderful Tonight
DR7 -0.10 dB -9.51 dB 3:33 09-Everything
DR9 -0.10 dB -12.21 dB 2:48 10-I've Got The World On A String
DR11 -0.10 dB -14.72 dB 4:30 11-Always On My Mind
DR8 -0.10 dB -10.83 dB 4:16 12-That's Life
DR12 -1.20 dB -17.16 dB 5:06 13-Dream
--------------------------------------------------------------------------------

Number of tracks: 13
Official DR value: DR8

Analyzed: Patricia Barber / Café blue
--------------------------------------------------------------------------------

DR Peak RMS Duration Track
--------------------------------------------------------------------------------
DR14 -0.77 dB -19.34 dB 5:25 01-What A Shame
DR14 -0.03 dB -18.46 dB 6:59 02-Mourning Grace
DR13 -3.92 dB -21.66 dB 4:40 03-The Thrill is Gone
DR13 -3.09 dB -23.05 dB 4:28 04-Romanesque
DR17 -0.09 dB -20.09 dB 5:08 05-Yellow Car III
DR15 -4.13 dB -22.45 dB 0:58 06-Wood is a Pleasant Thing to Think About
DR13 -6.99 dB -23.90 dB 5:03 07-Inch Worm
DR18 -1.36 dB -24.19 dB 5:21 08-Ode to Billy Joe
DR10 -2.40 dB -16.74 dB 7:59 09-Too Rich for my Blood
DR17 -2.40 dB -23.20 dB 4:29 10-A Taste of Honey
DR13 -2.40 dB -20.18 dB 9:02 11-Nardis
DR19 -2.40 dB -24.03 dB 3:23 12-Manha de Carnaval
--------------------------------------------------------------------------------

Number of tracks: 12
Official DR value: DR15




Revenir en haut Aller en bas
pompon

avatar

Messages : 1499
Date d'inscription : 12/03/2011

MessageSujet: Re: Lauridsen: Lux Aeterna   Mer 26 Avr - 20:24

Jazz at the pawnshop (sweeden) DR15
Arne Domnérus - [2010] Jazz at the Pawnshop [K2 HD 24 bits 100K Hz Mastering 99.9999% Silver] DR14 (comme quoi le HD n'est qu'un remaster et ne règle rien sur la dynamique).

Celine Dion - D'Eux DR9
Tracy Chapman - Tracy Chapman DR14
Adele - 21 DR7
Amy Winehouse - [2006] Back To Black DR6


--------------------------------------------------------------------------------
Analyzed: Dhafer Youssef / Electric Sufi
--------------------------------------------------------------------------------
(la toune que tout le monde trippe est la moins dynamique de l'album! hahaha)

DR Peak RMS Duration Track
--------------------------------------------------------------------------------
DR12 -0.91 dB -17.16 dB 5:09 01-Mandakini
DR7 -0.92 dB -13.67 dB 3:17 02-Yabay
DR13 -0.92 dB -17.49 dB 4:57 03-Electric Sufi
DR16 -0.92 dB -21.51 dB 2:45 04-Oil On Water
DR12 -0.92 dB -16.67 dB 6:44 05-La Priere De L'Absent
DR10 -0.92 dB -13.66 dB 7:05 06-Man On Wool
DR10 -0.92 dB -15.13 dB 6:26 07-La Nuit Sacree
DR9 -0.92 dB -12.25 dB 6:47 08-Nouba
DR10 -0.92 dB -13.80 dB 5:36 09-Farha
DR10 -0.92 dB -12.86 dB 5:26 10-Nafha
DR13 -0.92 dB -18.41 dB 3:20 11-Al-Hallaj
DR9 -0.92 dB -12.70 dB 6:16 12-Suraj
DR13 -0.92 dB -18.63 dB 3:34 13-Langue Muette
--------------------------------------------------------------------------------

Number of tracks: 13
Official DR value: DR11



Analyzed: Infected Mushroom / The Gathering
--------------------------------------------------------------------------------

DR Peak RMS Duration Track
--------------------------------------------------------------------------------
DR7 -0.10 dB -10.06 dB 8:29 01-Release Me
DR6 -0.10 dB -8.16 dB 7:44 02-The Gathering
DR8 -0.12 dB -9.78 dB 8:13 03-Return Of The Shadows
DR9 -0.10 dB -10.17 dB 8:09 04-Blue Muppet
DR6 -0.99 dB -8.38 dB 8:38 05-Psycho
DR6 -0.38 dB -8.35 dB 8:20 06-Montoya RMX
DR6 -0.94 dB -8.24 dB 7:29 07-Tommy The Bat
DR7 -0.10 dB -9.33 dB 8:24 08-Virtual Voyage
DR8 -0.10 dB -10.00 dB 8:36 09-Over Mode
--------------------------------------------------------------------------------

Number of tracks: 9
Official DR value: DR7



Revenir en haut Aller en bas
pompon

avatar

Messages : 1499
Date d'inscription : 12/03/2011

MessageSujet: Re: Lauridsen: Lux Aeterna   Mer 26 Avr - 20:55

Un DR6-7 c'est mauvais. Ca sonne lourd et c'est fatiguant à écouter.
On est dans la ligue des Adèle et Shakira

DR12+ On tombe dans quelque chose de très bon qui sonnera naturel

L'entre deux n'est pas mauvais mais on ressent un travail de "garder le contrôle" pour être présent sans paraître enfermé. Après 1 hrs ou deux, je suis content de faire stop.


Revenir en haut Aller en bas
RicharD

avatar

Messages : 3825
Date d'inscription : 20/04/2010
Age : 63
Localisation : Val d'Or

MessageSujet: Re: Lauridsen: Lux Aeterna   Jeu 27 Avr - 8:05

WOW ! Gros travail que tu as fait là.

Il y a matière à réflexion.

Je suis surpris que sur un même enregistrement il y a de forts écarts dynamiques. Je pense à Solyma et karamane avec DR12 et Dormire, tout de suite après avec DR7.

Et-ce que le style de musique influence le DR ? Tu en penses quoi ?

J'écoute en ce moment Dhafer Youssef, electric soufi. Yabay est une pièce tranquille avec peu d'instruments et voix et DR7.
Oil on water avec DR 16 laisse penser à une très forte dynamique mais qu'en serait-il si la dernière partie de la pièce, qui frôle le chuchotement, n'était pas là ? Le DR serait-il aussi élevé ?

Dans la même veine de pensée, la prière de l'absent, la première partie est une trompette seule, a DR12. La trame sonore est très nuancée en dynamique parce que voulue ainsi.

Ce que je me demande est que, si des instruments comme la trompette et le piano, qui sont capables de grosses nuances dynamiques, sont joués sans écarts dynamiques, cela va influencer le DR mais si ce n'est pas compressé, cette impression d'étouffement que provoque la compression ne serait possiblement pas là.

Es-tu d'accord avec ce que j'avance ?

À propos de Nick Bartsch, est-il possible pour toi de vérifier quel serait le DR d'un de ces enregistrements ECM par rapport à REA qui n'est pas sous cette étiquette ? Je pense à STOA, Holon ou Llyria.

Très intéressant ta démarche.
Revenir en haut Aller en bas
pompon

avatar

Messages : 1499
Date d'inscription : 12/03/2011

MessageSujet: Re: Lauridsen: Lux Aeterna   Jeu 27 Avr - 23:05

Ma librairie est trop éparpillée pour faire ces vérifications en ce moment. 8-)

Le calcul du "DR" ne tiens pas compte de la macro dynamique mais bien de la micro dynamique. Il serait trop facile d'avoir un DR fort à cause d'un cri ou d'un coup de canon ou bien un moment de silence complet.

Tu peux le faire toi-même avec j-river.
Dans j-river, bouton droit sur la pièce, library tools, analyse audio et enfin analyse (le bouton)

Le genre de musique et ses instruments vont influencer le DR mais d'après moi pas tant que ca.
Revenir en haut Aller en bas
RicharD

avatar

Messages : 3825
Date d'inscription : 20/04/2010
Age : 63
Localisation : Val d'Or

MessageSujet: Re: Lauridsen: Lux Aeterna   Ven 28 Avr - 7:34

OK pour la micro dynamique ! J'avais oublier ce détail important dans mon analyse d'hier.

Je viens de faire l'analyse de Nick Bartsch, STOA

Modul 35 DR12
Modul 35 DR12
Modul 32 DR14
Modul 33 DR13
Modul 38_17 DR10

Bon, chez ECM, tout indique que la micro dynamique est mieux respectée. La compression est moins présente.

Ce qui fatigue chez ECM, ce n'est pas la qualité d'enregistrement mais la musique elle même qui est parfois, souvent diront certains, indigeste. C'est le coté cérébral qui ne plaît pas à tous mais quand tu aimes la musique pas de souci à se faire l'enregistrement est très largement supérieur à la moyenne.



Revenir en haut Aller en bas
Contenu sponsorisé




MessageSujet: Re: Lauridsen: Lux Aeterna   

Revenir en haut Aller en bas
 
Lauridsen: Lux Aeterna
Voir le sujet précédent Voir le sujet suivant Revenir en haut 
Page 1 sur 1
 Sujets similaires
-
» Présentation

Permission de ce forum:Vous ne pouvez pas répondre aux sujets dans ce forum
Audio Café :: Audio :: Musique-
Sauter vers: